Вернуться   MMARedForum > MMARF > Октагон

Октагон Обсуждение всех тем связанных с ММА


Надоедает реклама? Авторизуйтесь или зарегистрируйтесь на форуме, рекламные баннеры видны только незарегистрированным пользователям
Ответ
 
Опции темы Опции просмотра
Старый 30.03.2009, 02:40   #261
Лёгкий вес
 
Аватар для TankFedor
 

Регистрация: 27.03.2009
Сообщений: 98
RUV: 1,047
Вы сказали Спасибо: 35
Поблагодарили 149 раз(а) в 45 сообщениях
Несогласия: 6
Не согласились 64 раз(а) в 7 сообщениях
Рейтинг мнений:
Народ, ваши разборки - есть успешная реализация плана А. Даллеса.


Надоедает реклама? Авторизуйтесь или зарегистрируйтесь на форуме, рекламные баннеры видны только незарегистрированным пользователям
TankFedor вне форума   sendpm.gif Ответить с цитированием
Эти 2 пользователя(ей) сказали Спасибо TankFedor за это полезное сообщение:
Боб (30.03.2009), Северянин (30.03.2009)
Старый 30.03.2009, 02:41   #262
Лёгкий вес
 
Аватар для TabasRostov
 

Регистрация: 30.03.2009
Сообщений: 25
RUV: 503
Вы сказали Спасибо: 16
Поблагодарили 11 раз(а) в 7 сообщениях
Несогласия: 0
Не согласились 13 раз(а) в 3 сообщениях
Рейтинг мнений:
Цитата:
Вот мои свеженькие фотки)))
Для просмотра ссылок или изображений, в данном разделе у вас должно быть 1 сообщение(ий) или более. Сейчас у Вас 0 сообщение(ий).
Как смотреть??
TabasRostov вне форума   sendpm.gif Ответить с цитированием
Старый 30.03.2009, 02:43   #263
Супертяжёлый вес
 
Аватар для H2O
 

Регистрация: 17.04.2007
Сообщений: 11,462
RUV: 26,268
Вы сказали Спасибо: 2,468
Поблагодарили 12,759 раз(а) в 4,499 сообщениях
Несогласия: 274
Не согласились 1,907 раз(а) в 873 сообщениях
Рейтинг мнений: 649
Жаль сечка.
Конечно , бой нужно увидеть.
H2O вне форума   sendpm.gif Ответить с цитированием
Старый 30.03.2009, 02:43   #264
Тяжелый вес
 
Аватар для UgLy
 

Регистрация: 04.08.2005
Возраст: 40
Сообщений: 3,421
RUV: 8,936
Вы сказали Спасибо: 763
Поблагодарили 1,432 раз(а) в 624 сообщениях
Несогласия: 9
Не согласились 13 раз(а) в 10 сообщениях
Рейтинг мнений: 146
Что не тема, то Грин Стрит хулиганс.

Жутко.

И в реал прорывается.
(Или то реал прорывается?)
**********************************
Рад победе АЕ.

Есть слабая надежда, что ещё позвездит на международных турнирах.
Поражение бы здорово отбросило.

Победа Маги не дала бы ему международный потенциал.

Все при своих остались.
************************************
Хорошо, что турниры в России начинают расти.

Тут бы Алексея дождаться из Ростова.
Дабы динмаику красочно описал.
__________________
"90% of the fight game is half mental"
Tim Sylvia .
UgLy вне форума   sendpm.gif Ответить с цитированием
Этот пользователь сказал Спасибо UgLy за это полезное сообщение:
Scorpion (30.03.2009)
Старый 30.03.2009, 02:44   #265
Лёгкий вес
 
Аватар для L.A.
 

Регистрация: 25.01.2009
Сообщений: 18
RUV: 558
Вы сказали Спасибо: 68
Поблагодарили 56 раз(а) в 14 сообщениях
Несогласия: 0
Не согласились 0 раз(а) в 0 сообщениях
Рейтинг мнений:
Цитата:
Сообщение от TankFedor
Народ, ваши разборки - есть успешная реализация плана А. Даллеса.
Который, в свою очередь, является не более чем мифом:
Для просмотра ссылок или изображений, в данном разделе у вас должно быть 1 сообщение(ий) или более. Сейчас у Вас 0 сообщение(ий).
L.A. вне форума   Ответить с цитированием
Старый 30.03.2009, 02:44   #266
Тяжелый вес
 
Аватар для Yunus
 

Регистрация: 25.10.2006
Возраст: 43
Сообщений: 2,183
RUV: 6,044
Вы сказали Спасибо: 5,353
Поблагодарили 2,487 раз(а) в 855 сообщениях
Несогласия: 92
Не согласились 48 раз(а) в 24 сообщениях
Рейтинг мнений: 1168
TabasRostov, жми на фотки.
Yunus вне форума   sendpm.gif Ответить с цитированием
Старый 30.03.2009, 02:44   #267
Средний вес
 
Аватар для Jens
 

Регистрация: 17.08.2008
Сообщений: 192
RUV: 2,621
Вы сказали Спасибо: 235
Поблагодарили 205 раз(а) в 71 сообщениях
Несогласия: 8
Не согласились 6 раз(а) в 2 сообщениях
Рейтинг мнений:
Видео:
Для просмотра ссылок или изображений, в данном разделе у вас должно быть 1 сообщение(ий) или более. Сейчас у Вас 0 сообщение(ий).

Качество
Duration: 00:01:28.63, start: 0.000000, bitrate: 7537 kb/s
Stream #0.0: Video: mjpeg, yuvj422p, 640x480, 30.00 tb(r)
Stream #0.1: Audio: pcm_u8, 11024 Hz, mono, 88 kb/s
Не пережимал, как было на флешке, так и выкладываю. Нет представления бойцов и эпизода с проверкой перчаток. Снимал с рук, так что и качество соответствующее.

Напишите нормально ли качается?
Jens вне форума   sendpm.gif Ответить с цитированием
Эти 35 пользователя(ей) сказали Спасибо Jens за это полезное сообщение:
Развернуть/свернуть список отблагодаривших

Старый 30.03.2009, 02:47   #268
Лёгкий вес
 
Аватар для TankFedor
 

Регистрация: 27.03.2009
Сообщений: 98
RUV: 1,047
Вы сказали Спасибо: 35
Поблагодарили 149 раз(а) в 45 сообщениях
Несогласия: 6
Не согласились 64 раз(а) в 7 сообщениях
Рейтинг мнений:
Цитата:
Который, в свою очередь, является не более чем мифом:
Для просмотра ссылок или изображений, в данном разделе у вас должно быть 1 сообщение(ий) или более. Сейчас у Вас 0 сообщение(ий).
А ты посмотри, что сейчас происходит с Россией и подумай сам - миф или нет.
TankFedor вне форума   sendpm.gif Ответить с цитированием
Старый 30.03.2009, 02:47   #269
Тяжелый вес
 
Аватар для Yunus
 

Регистрация: 25.10.2006
Возраст: 43
Сообщений: 2,183
RUV: 6,044
Вы сказали Спасибо: 5,353
Поблагодарили 2,487 раз(а) в 855 сообщениях
Несогласия: 92
Не согласились 48 раз(а) в 24 сообщениях
Рейтинг мнений: 1168
Jens, у меня за минуту скачалось, все в норме.
Yunus вне форума   sendpm.gif Ответить с цитированием
Старый 30.03.2009, 02:48   #270
Лёгкий вес
 
Аватар для TabasRostov
 

Регистрация: 30.03.2009
Сообщений: 25
RUV: 503
Вы сказали Спасибо: 16
Поблагодарили 11 раз(а) в 7 сообщениях
Несогласия: 0
Не согласились 13 раз(а) в 3 сообщениях
Рейтинг мнений:
вроде качается.Осталось 40%. Спасибо. надеюсь откроется
TabasRostov вне форума   sendpm.gif Ответить с цитированием
Ответ

Метки
profc, александр емельяненко, ибрагим магомедов


Здесь присутствуют: 1 (пользователей: 0 , гостей: 1)
 
Опции темы
Опции просмотра

Ваши права в разделе
Вы не можете создавать новые темы
Вы не можете отвечать в темах
Вы не можете прикреплять вложения
Вы не можете редактировать свои сообщения

BB коды Вкл.
Смайлы Вкл.
[IMG] код Вкл.
HTML код Вкл.

Быстрый переход



Надоедает реклама? Авторизуйтесь или зарегистрируйтесь на форуме, рекламные баннеры видны только незарегистрированным пользователям

Часовой пояс GMT +4, время: 03:37.



Powered by vBulletin. Перевод: zCarot